Ae Dil Hai Mushkil (2016) Hindi 720p DVDRip x264 AAC 5.1 ESub – 1.48 GB
 General
Format                      : Matroska
Format version              : Version 4 / Version 2
File size                   : 1.45 GiB
Duration                    : 2 h 36 min
Overall bit rate            : 1 319 kb/s
Movie name                  : [email protected]
Format                      : AVC
Format/Info                 : Advanced Video Codec
Format profile              : [email protected]
Format settings, CABAC      : Yes
Format settings, ReFrames   : 12 frames
Codec ID                    : V_MPEG4/ISO/AVC
Duration                    : 2 h 36 min
Bit rate                    : 1 125 kb/s
Width                       : 1 280 pixels
Height                      : 544 pixels
Display aspect ratio        : 2.35:1
Frame rate mode             : Constant
Frame rate                  : 29.970 (30000/1001) FPS
Color space                 : YUV
Chroma subsampling          : 4:2:0
Bit depth                   : 8 bits
Scan type                   : Progressive
Bits/(Pixel*Frame)          : 0.054
Stream size                 : 1.23 GiB (85%)
Title                       : [email protected]

Audio 1
Format                      : AAC
Format/Info                 : Advanced Audio Codec
Format profile              : HE-AAC / LC
Codec ID                    : A_AAC
Duration                    : 2 h 36 min
Bit rate                    : 192 kb/s
Channel(s)                  : 6 channels
Channel positions           : Front: L C R, Side: L R, LFE
Sampling rate               : 48.0 kHz / 24.0 kHz
Frame rate                  : 23.438 FPS (1024 spf)
Compression mode            : Lossy
Delay relative to video     : 31 ms
Stream size                 : 215 MiB (15%)
Title                       : [email protected]
Default                     : Yes

Subtitle
Format                      : UTF-8
Codec ID                    : S_TEXT/UTF8
Codec ID/Info               : UTF-8 Plain Text
Duration                    : 2 h 27 min
Bit rate                    : 37 b/s
Count of elements           : 1549
Stream size                 : 40.6 KiB (0%)
Title                       : [email protected]
Default                     : Yes


Sample

 



ClicknUpload

BDUpload




Comments

Related Article